<?xml version="1.0" standalone="no"?>
<!DOCTYPE svg PUBLIC "-//W3C//DTD SVG 1.1//EN" "http://www.w3.org/Graphics/SVG/1.1/DTD/svg11.dtd" >
<svg xmlns="http://www.w3.org/2000/svg">
<metadata></metadata>
<defs>
<font id="verlagbook" horiz-adv-x="901" >
<font-face units-per-em="2048" ascent="1638" descent="-410" />
<missing-glyph horiz-adv-x="460" />
<glyph horiz-adv-x="2048" />
<glyph horiz-adv-x="2048" />
<glyph unicode="&#xd;" horiz-adv-x="2048" />
<glyph unicode=" "  horiz-adv-x="460" />
<glyph unicode="&#x09;" horiz-adv-x="460" />
<glyph unicode="&#xa0;" horiz-adv-x="460" />
<glyph unicode="!" horiz-adv-x="450" d="M121 90q0 43 30.5 74t73.5 31q44 0 75.5 -31t31.5 -74q0 -44 -31.5 -75t-75.5 -31q-43 0 -73.5 31t-30.5 75zM135 1501h180l-28 -1128h-123z" />
<glyph unicode="&#x22;" horiz-adv-x="823" d="M90 1018l193 401l157 -98l-260 -363zM408 993l192 406l162 -101l-264 -364z" />
<glyph unicode="#" horiz-adv-x="1208" d="M51 307l29 129h217l68 307h-218l29 131h217l70 306h145l-67 -306h254l69 306h144l-68 -306h217l-29 -131h-217l-69 -307h219l-29 -129h-219l-68 -307h-143l68 307h-256l-68 -307h-145l67 307h-217zM442 436h256l68 307h-254z" />
<glyph unicode="$" horiz-adv-x="899" d="M68 102l82 131q110 -85 217 -108l32 424q-68 31 -114.5 59.5t-84.5 66.5t-56.5 85.5t-18.5 107.5q0 127 90 221t234 109l12 135l123 -10l-11 -129q121 -15 222 -84l-74 -129q-74 55 -158 72l-31 -396q146 -67 212.5 -138.5t66.5 -190.5q0 -142 -96 -239t-236 -109 l-10 -134l-123 11l8 127q-144 18 -286 118zM281 879q0 -91 131 -164l26 340q-76 -13 -116.5 -59.5t-40.5 -116.5zM489 121q76 14 120 63.5t44 130.5q0 112 -133 183z" />
<glyph unicode="%" horiz-adv-x="1363" d="M102 899q0 128 67.5 214.5t184.5 86.5q118 0 184 -86t66 -215t-67.5 -215t-186.5 -86q-117 0 -182.5 86t-65.5 215zM145 37l981 1182l93 -76l-981 -1182zM227 899q0 -79 33 -131.5t92 -52.5q60 0 92.5 52.5t32.5 131.5t-32.5 131.5t-92.5 52.5q-59 0 -92 -52.5 t-33 -131.5zM762 281q0 129 67 215t185 86q117 0 182.5 -86t65.5 -215q0 -128 -67.5 -214.5t-184.5 -86.5q-118 0 -183 85.5t-65 215.5zM887 281q0 -80 32.5 -132.5t92.5 -52.5t92.5 52.5t32.5 132.5q0 79 -32.5 131.5t-92.5 52.5t-92.5 -52.5t-32.5 -131.5z" />
<glyph unicode="&#x26;" horiz-adv-x="1245" d="M102 311q0 207 275 336q-80 132 -80 236q0 132 96 224.5t213 92.5q90 0 157.5 -41t98.5 -99.5t31 -121.5q0 -229 -293 -350q94 -116 252 -256q83 88 199 246l110 -82q-125 -161 -209 -252q115 -100 201 -168l-94 -109q-72 55 -211 172q-184 -159 -375 -159 q-162 0 -266.5 87t-104.5 244zM260 309q0 -88 61.5 -141t159.5 -53q130 0 267 114q-190 174 -297 312q-86 -33 -138.5 -95t-52.5 -137zM449 891q0 -85 75 -201q228 97 228 232q0 62 -42.5 106.5t-103.5 44.5q-63 0 -110 -53.5t-47 -128.5z" />
<glyph unicode="'" horiz-adv-x="501" d="M90 1018l193 401l157 -98l-260 -363z" />
<glyph unicode="(" horiz-adv-x="704" d="M102 528q0 300 143 569t406 431l68 -119q-227 -138 -348 -375.5t-121 -505.5q0 -175 51 -337.5t158.5 -305t259.5 -235.5l-68 -119q-263 160 -406 429t-143 568z" />
<glyph unicode=")" horiz-adv-x="704" d="M-14 -350q152 93 259.5 235.5t158.5 305t51 337.5q0 268 -121 505.5t-348 375.5l67 119q263 -162 406 -431t143 -569q0 -299 -143 -568t-406 -429z" />
<glyph unicode="*" horiz-adv-x="778" d="M82 1237l39 117l217 -80l-12 225h127l-13 -225l217 80l39 -117l-223 -61l145 -177l-102 -71l-127 188l-127 -188l-100 71l143 177z" />
<glyph unicode="+" horiz-adv-x="942" d="M123 520v139h274v289h148v-289h274v-139h-274v-289h-148v289h-274z" />
<glyph unicode="," horiz-adv-x="450" d="M100 -213q99 86 131 203q-48 3 -77 32.5t-29 71.5q0 41 29.5 71t70.5 30q52 0 81.5 -36t29.5 -89q0 -78 -55 -166.5t-158 -149.5z" />
<glyph unicode="-" horiz-adv-x="694" d="M102 426v139h490v-139h-490z" />
<glyph unicode="." horiz-adv-x="450" d="M121 90q0 43 30.5 74t73.5 31q44 0 75.5 -31t31.5 -74q0 -44 -31.5 -75t-75.5 -31q-43 0 -73.5 31t-30.5 75z" />
<glyph unicode="/" horiz-adv-x="690" d="M57 -442l490 1943h143l-487 -1943h-146z" />
<glyph unicode="0" horiz-adv-x="1087" d="M90 590q0 125 31 235.5t88 194t145.5 132t196.5 48.5q143 0 246.5 -84t153.5 -220.5t50 -305.5q0 -168 -51.5 -304.5t-157 -221t-249.5 -84.5q-108 0 -195.5 48.5t-143 133t-85 194t-29.5 234.5zM258 590q0 -131 31 -236t98 -170t160 -65t159.5 65.5t97 169.5t30.5 236 t-30.5 236.5t-97 169.5t-159.5 65t-160 -65t-98 -169.5t-31 -236.5z" />
<glyph unicode="1" horiz-adv-x="698" d="M68 1059l391 147h26v-1206h-161v993l-207 -75z" />
<glyph unicode="2" horiz-adv-x="892" d="M35 23q292 313 414 473q83 105 121 182t38 164q0 96 -59 152.5t-164 56.5q-139 0 -254 -78l-49 131q66 43 146 69.5t155 26.5q180 0 286.5 -95t106.5 -245q0 -99 -43.5 -196t-138.5 -220q-126 -158 -256 -299h453v-145h-746z" />
<glyph unicode="3" horiz-adv-x="864" d="M66 35l45 135q140 -47 254 -47q120 0 184.5 57t64.5 158q0 103 -79 158t-232 55q-67 0 -127 -8l-12 18l368 471h-462v148h725l10 -23l-377 -481q168 -23 256 -113.5t88 -230.5q0 -152 -108.5 -252t-290.5 -100q-144 0 -307 55z" />
<glyph unicode="4" horiz-adv-x="989" d="M45 354v41l662 807h41v-702h196v-146h-196v-358h-154v358h-549zM303 500h291v354z" />
<glyph unicode="5" horiz-adv-x="935" d="M115 35l43 137q132 -51 258 -51q124 0 190 67.5t66 173.5q0 97 -71 156.5t-202 59.5q-117 0 -217 -25l-18 22v605h610v-148h-459v-311q50 4 91 4q206 0 314.5 -100.5t108.5 -262.5q0 -164 -108.5 -273t-290.5 -109q-158 0 -315 55z" />
<glyph unicode="6" horiz-adv-x="987" d="M90 401q0 110 35.5 216t110 213t201.5 211t300 196l70 -123q-196 -108 -318 -215.5t-182 -232.5q47 49 102 70.5t132 21.5q149 0 248.5 -107t99.5 -258q0 -78 -27 -151.5t-76.5 -132t-126 -94t-167.5 -35.5q-179 0 -290.5 118t-111.5 303zM250 373q0 -106 70.5 -181 t171.5 -75q105 0 172 75t67 179q0 116 -62.5 188t-168.5 72q-119 0 -184.5 -70.5t-65.5 -187.5z" />
<glyph unicode="7" horiz-adv-x="868" d="M63 1032v148h760l-520 -1180h-160l465 1032h-545z" />
<glyph unicode="8" horiz-adv-x="985" d="M123 319q0 94 50 169.5t136 117.5q-162 89 -162 262q0 140 97 236t248 96q152 0 248 -95.5t96 -236.5q0 -173 -160 -262q86 -42 136 -117.5t50 -169.5q0 -142 -102.5 -240.5t-267.5 -98.5q-163 0 -266 98.5t-103 240.5zM283 324q0 -91 58 -151t151 -60q94 0 152 60 t58 151q0 90 -58.5 150.5t-151.5 60.5q-92 0 -150.5 -61t-58.5 -150zM299 868q0 -82 54.5 -140t138.5 -58q85 0 138.5 58t53.5 140q0 84 -53 141.5t-139 57.5q-85 0 -139 -58t-54 -141z" />
<glyph unicode="9" horiz-adv-x="966" d="M100 797q0 166 111 284.5t285 118.5q182 0 287.5 -117.5t105.5 -300.5q0 -110 -35.5 -216.5t-110.5 -214t-202.5 -211.5t-300.5 -195l-68 121q192 106 310 211t182 229q-77 -70 -201 -70q-151 0 -257 104.5t-106 256.5zM258 821q0 -115 60.5 -184.5t166.5 -69.5 q118 0 178 68t60 186q0 106 -64 175t-165 69q-106 0 -171 -71t-65 -173z" />
<glyph unicode=":" horiz-adv-x="450" d="M119 651q0 43 31 74t75 31q43 0 74 -31t31 -74q0 -44 -31 -75t-74 -31q-44 0 -75 31t-31 75zM121 90q0 43 30.5 74t73.5 31q44 0 75.5 -31t31.5 -74q0 -44 -31.5 -75t-75.5 -31q-43 0 -73.5 31t-30.5 75z" />
<glyph unicode=";" horiz-adv-x="450" d="M100 -213q99 86 131 203q-48 3 -77 32.5t-29 71.5q0 41 29.5 71t70.5 30q52 0 81.5 -36t29.5 -89q0 -78 -55 -166.5t-158 -149.5zM119 651q0 43 31 74t75 31q43 0 74 -31t31 -74q0 -44 -31 -75t-74 -31q-44 0 -75 31t-31 75z" />
<glyph unicode="&#x3c;" horiz-adv-x="806" d="M78 590l563 500l96 -107l-446 -397l446 -396l-96 -98z" />
<glyph unicode="=" horiz-adv-x="845" d="M123 373v139h600v-139h-600zM123 668v139h600v-139h-600z" />
<glyph unicode="&#x3e;" horiz-adv-x="806" d="M70 199l446 397l-446 395l96 99l563 -498l-563 -500z" />
<glyph unicode="?" horiz-adv-x="786" d="M45 1460q160 56 297 56q191 0 294 -95.5t103 -244.5q0 -61 -20.5 -115.5t-53.5 -95t-73 -78.5t-80 -73t-73 -70.5t-53.5 -79t-20.5 -91.5v-157h-150v200q0 51 19.5 97.5t51.5 83.5t70 72.5t76 69.5t70 68t51.5 75.5t19.5 84.5q0 93 -61.5 143t-183.5 50q-117 0 -238 -47z M182 90q0 43 31 74t74 31q44 0 75 -31t31 -74q0 -44 -31 -75t-75 -31q-43 0 -74 31t-31 75z" />
<glyph unicode="@" horiz-adv-x="1400" d="M102 586q0 166 80 306.5t218 222t300 81.5q117 0 216.5 -33t168.5 -88t118 -127t72 -150t23 -157q0 -96 -35 -176.5t-102 -128.5q-61 -45 -139 -45q-55 0 -100.5 25.5t-69.5 74.5q-87 -94 -201 -94q-81 0 -135.5 47.5t-54.5 126.5q0 71 53 116.5t139 45.5q79 0 150 -31 v23q0 62 -32 91t-99 29q-60 0 -135 -22l-17 102q89 29 172 29q124 0 184 -58.5t60 -177.5v-131q0 -50 26.5 -73t65.5 -23q40 0 72 21q37 28 58.5 86.5t21.5 130.5q0 63 -16 125t-53 122.5t-90.5 106t-136.5 74t-184 28.5q-196 0 -334.5 -146t-138.5 -353q0 -104 36 -194.5 t102.5 -159t170 -107.5t230.5 -39q105 0 244 47l28 -108q-169 -50 -280 -50q-149 0 -273.5 48t-207.5 131t-129 194t-46 238zM588 473q0 -39 26.5 -60.5t75.5 -21.5q68 0 113 55v68q-55 35 -119 35q-42 0 -69 -19.5t-27 -56.5z" />
<glyph unicode="A" horiz-adv-x="1394" d="M10 0l674 1528h27l673 -1528h-176l-178 416h-672l-178 -416h-170zM418 553h553l-277 645z" />
<glyph unicode="B" horiz-adv-x="1140" d="M164 12v1475q190 24 348 24q104 0 191 -21.5t147 -58t102.5 -86t62 -104.5t19.5 -115q0 -127 -59 -213.5t-205 -136.5q303 -77 303 -368q0 -81 -36.5 -155.5t-103.5 -134t-173 -95t-234 -35.5q-140 0 -362 24zM328 145q85 -16 221 -16q168 0 260 82t92 213 q0 115 -104 198t-289 83q-119 0 -180 -7v-553zM328 838q65 -7 176 -7q185 0 272.5 78t87.5 195q0 124 -85.5 196t-252.5 72q-113 0 -198 -16v-518z" />
<glyph unicode="C" horiz-adv-x="1462" d="M113 750q0 163 61 307t166 247t253 162.5t316 59.5q139 0 267.5 -41t228.5 -103l-68 -139q-98 57 -218 93t-224 36q-185 0 -323.5 -82t-209.5 -222t-71 -318q0 -177 74.5 -317.5t216 -222t327.5 -81.5q104 0 224.5 36t218.5 93l53 -139q-100 -62 -228.5 -103t-267.5 -41 q-229 0 -410.5 99t-283.5 276t-102 400z" />
<glyph unicode="D" horiz-adv-x="1525" d="M164 12v1475q197 24 391 24q164 0 304.5 -40.5t241 -111.5t172 -166t106 -203.5t34.5 -225.5q0 -122 -33 -235.5t-102.5 -212t-168 -171.5t-237.5 -115t-303 -42q-171 0 -405 24zM328 145q84 -16 262 -16q161 0 286.5 49t202.5 135.5t116.5 200.5t39.5 250 q0 131 -43.5 242t-125.5 192.5t-209.5 127.5t-287.5 46q-156 0 -241 -16v-1211z" />
<glyph unicode="E" horiz-adv-x="1175" d="M164 0v1501h878v-147h-714v-518h643v-148h-643v-541h714v-147h-878z" />
<glyph unicode="F" horiz-adv-x="1101" d="M164 0v1501h878v-147h-714v-547h643v-148h-643v-659h-164z" />
<glyph unicode="G" horiz-adv-x="1587" d="M113 750q0 171 68 319t179 246.5t251 154.5t286 56q174 0 302 -45.5t259 -137.5l-86 -129q-105 77 -228.5 120.5t-244.5 43.5q-140 0 -256.5 -51.5t-192.5 -138.5t-117.5 -200t-41.5 -238q0 -174 83 -318.5t227 -227.5t317 -83q213 0 382 102v367h-397v153h561v-591 q-238 -177 -549 -177q-156 0 -301 56t-256 155t-178 246t-67 318z" />
<glyph unicode="H" horiz-adv-x="1458" d="M164 0v1501h164v-665h802v665h164v-1501h-164v688h-802v-688h-164z" />
<glyph unicode="I" horiz-adv-x="512" d="M174 0v1501h164v-1501h-164z" />
<glyph unicode="J" horiz-adv-x="929" d="M29 82l84 125q110 -82 241 -82q133 0 195.5 79t62.5 245v1052h164v-1055q0 -211 -110.5 -341t-313.5 -130q-191 0 -323 107z" />
<glyph unicode="K" horiz-adv-x="1226" d="M164 0v1501h164v-698l653 698h207l-696 -729l729 -772h-215l-678 737v-737h-164z" />
<glyph unicode="L" horiz-adv-x="1079" d="M164 0v1501h164v-1354h714v-147h-878z" />
<glyph unicode="M" horiz-adv-x="1751" d="M143 0l58 1526l30 4l652 -1131l635 1131l32 -4l58 -1526h-166l-23 1061l-532 -907h-23l-536 909l-19 -1063h-166z" />
<glyph unicode="N" horiz-adv-x="1486" d="M164 0v1522l33 8l962 -1149v1120h164v-1524l-20 -6l-975 1168v-1139h-164z" />
<glyph unicode="O" horiz-adv-x="1722" d="M113 750q0 165 61 311t164 247t241 159.5t289 58.5t287 -58.5t236.5 -160t159.5 -246.5t59 -311q0 -165 -61.5 -310.5t-164.5 -246.5t-241 -159.5t-289 -58.5t-287 58.5t-236 159.5t-159 246t-59 311zM291 750q0 -176 72.5 -319.5t203.5 -226.5t295 -83q163 0 294 83 t203.5 227t72.5 319t-72.5 318.5t-203.5 226.5t-294 83q-164 0 -295 -83t-203.5 -226t-72.5 -319z" />
<glyph unicode="P" horiz-adv-x="1128" d="M164 0v1487q190 24 344 24q141 0 253 -38.5t181.5 -104.5t106 -151t36.5 -183q0 -230 -157 -371t-430 -141q-68 0 -170 8v-530h-164zM328 678q102 -12 180 -12q200 0 300.5 99.5t100.5 256.5q0 67 -24.5 128t-70.5 109t-119 76.5t-163 28.5q-133 0 -204 -16v-670z" />
<glyph unicode="Q" horiz-adv-x="1722" d="M113 750q0 165 61 310.5t163 247t240 160t289 58.5t287.5 -58.5t236.5 -160t159 -246.5t59 -311q0 -293 -178 -506l194 -174l-104 -121q-113 102 -207 184q-204 -158 -461 -158q-151 0 -286.5 58.5t-235.5 159.5t-158.5 246t-58.5 311zM291 750q0 -175 72.5 -319 t203 -227t293.5 -83q338 0 338 115q0 1 -68 62q-68 62 -137 124l-69 61l104 119q281 -250 281 -252q121 174 121 400q0 175 -72.5 318.5t-203.5 226.5t-294 83t-293.5 -83t-203 -226.5t-72.5 -318.5z" />
<glyph unicode="R" horiz-adv-x="1216" d="M166 0v1487q190 24 346 24q142 0 253 -34t181.5 -94.5t107 -142t36.5 -179.5q0 -157 -85 -270t-243 -164l436 -627h-199l-399 592q-66 -4 -100 -4q-72 0 -170 4v-592h-164zM330 737q82 -10 182 -10q204 0 302.5 86t98.5 238q0 137 -99 225t-277 88q-136 0 -207 -16v-611z " />
<glyph unicode="S" horiz-adv-x="1028" d="M51 115l80 143q187 -133 363 -133q137 0 209.5 76t72.5 186q0 70 -22.5 118t-87.5 97t-187 103q-194 86 -275 180.5t-81 230.5q0 168 129.5 289t329.5 121q183 0 333 -103l-73 -139q-128 92 -271 92q-135 0 -209.5 -72t-74.5 -180q0 -79 60 -144.5t196 -127.5 q233 -105 317 -199.5t84 -246.5q0 -183 -132 -307t-327 -124q-221 0 -434 140z" />
<glyph unicode="T" horiz-adv-x="1267" d="M51 1354v147h1166v-147h-500v-1354h-164v1354h-502z" />
<glyph unicode="U" horiz-adv-x="1421" d="M145 539v962h164v-950q0 -217 107 -322.5t293 -105.5q184 0 293.5 106.5t109.5 321.5v950h164v-962q0 -259 -156 -411.5t-411 -152.5q-261 0 -412.5 148.5t-151.5 415.5z" />
<glyph unicode="V" horiz-adv-x="1382" d="M10 1501h185l501 -1188l498 1188h178l-667 -1528h-27z" />
<glyph unicode="W" horiz-adv-x="1875" d="M20 1501h166l297 -1106l445 1118h20l447 -1112l295 1100h165l-413 -1526l-33 -4l-475 1188l-467 -1188l-33 4z" />
<glyph unicode="X" horiz-adv-x="1368" d="M41 0l553 748l-553 753h197l448 -633l451 633h190l-553 -747l553 -754h-197l-448 633l-451 -633h-190z" />
<glyph unicode="Y" horiz-adv-x="1300" d="M41 1501h184l430 -696l424 696h181l-529 -835v-666h-164v668z" />
<glyph unicode="Z" horiz-adv-x="1269" d="M76 23l850 1331h-797v147h1045l10 -24l-850 -1330h840v-147h-1088z" />
<glyph unicode="[" horiz-adv-x="608" d="M164 -442v1943h395v-131h-248v-1683h248v-129h-395z" />
<glyph unicode="\" horiz-adv-x="690" d="M0 1501h143l490 -1943h-146z" />
<glyph unicode="]" horiz-adv-x="608" d="M49 -313h248v1683h-248v131h395v-1943h-395v129z" />
<glyph unicode="^" d="M158 993l272 328h59l267 -328h-168l-137 174l-136 -174h-157z" />
<glyph unicode="_" horiz-adv-x="1064" d="M0 0v139h1065v-139h-1065z" />
<glyph unicode="`" d="M256 1153l86 160l358 -256l-53 -86z" />
<glyph unicode="a" horiz-adv-x="892" d="M68 260q0 116 88 192t221 76q80 0 135.5 -14t124.5 -43v51q0 110 -53.5 161.5t-171.5 51.5q-125 0 -226 -43l-26 139q147 46 272 46q185 0 274 -89.5t89 -275.5v-512h-150v90q-109 -106 -266 -106q-133 0 -222 74t-89 202zM221 260q0 -70 52 -108.5t147 -38.5 q125 0 217 106v117q-71 39 -119.5 54.5t-114.5 15.5q-85 0 -133.5 -37.5t-48.5 -108.5z" />
<glyph unicode="b" horiz-adv-x="1044" d="M115 0v1501h161v-719q51 43 126 69t155 26q174 0 290 -124t116 -317q0 -187 -126 -319.5t-298 -132.5q-72 0 -147.5 27t-123.5 73v-84h-153zM276 231q41 -49 101.5 -80.5t130.5 -31.5q129 0 212 88.5t83 226.5q0 131 -75.5 219t-201.5 88q-151 0 -250 -102v-408z" />
<glyph unicode="c" horiz-adv-x="876" d="M82 426q0 189 132 320t333 131q151 0 293 -89l-66 -122q-121 71 -242 71q-129 0 -211.5 -83.5t-82.5 -227.5q0 -135 90.5 -219t214.5 -84q118 0 241 72l56 -123q-140 -88 -293 -88q-202 0 -333.5 127t-131.5 315z" />
<glyph unicode="d" horiz-adv-x="1044" d="M82 422q0 123 58.5 228.5t156 166t209.5 60.5q155 0 262 -86v710h162v-1501h-154v88q-101 -104 -274 -104q-186 0 -303 122t-117 316zM242 426q0 -133 77 -220t209 -87q146 0 240 112v394q-42 53 -106.5 84.5t-143.5 31.5q-121 0 -198.5 -88.5t-77.5 -226.5z" />
<glyph unicode="e" horiz-adv-x="944" d="M82 426q0 120 48 221.5t145 165.5t225 64q177 0 277 -116.5t100 -297.5q0 -46 -7 -82h-630q32 -258 321 -258q99 0 238 47l28 -137q-166 -49 -280 -49q-223 0 -344 123.5t-121 318.5zM246 504h481q-8 106 -68.5 171.5t-169.5 65.5q-103 0 -166 -62.5t-77 -174.5z" />
<glyph unicode="f" horiz-adv-x="604" d="M53 721v20l133 133v228q0 202 85 308t253 106q69 0 133 -19l-26 -139q-42 10 -80 10q-114 0 -159.5 -54.5t-45.5 -189.5v-264h254v-139h-254v-721h-160v721h-133z" />
<glyph unicode="g" horiz-adv-x="1044" d="M82 422q0 123 58.5 228.5t156 166t209.5 60.5q81 0 153 -26.5t117 -70.5v80h154v-940q0 -192 -96.5 -285.5t-268.5 -93.5q-131 0 -289 47l23 148q131 -45 242 -45q118 0 172.5 52t54.5 163v168q-108 -90 -266 -90q-186 0 -303 122t-117 316zM242 422q0 -132 79.5 -219.5 t217.5 -87.5q140 0 229 106v404q-41 49 -107 82.5t-137 33.5q-126 0 -204 -90t-78 -229z" />
<glyph unicode="h" horiz-adv-x="993" d="M115 0v1501h161v-770q143 146 310 146q145 0 223 -80t78 -213v-584h-162v541q0 200 -180 200q-69 0 -144 -41t-125 -98v-602h-161z" />
<glyph unicode="i" horiz-adv-x="411" d="M104 1157q0 43 30 74t73 31q42 0 72 -31t30 -74q0 -42 -30 -72t-72 -30q-43 0 -73 30.5t-30 71.5zM125 0v860h162v-860h-162z" />
<glyph unicode="j" horiz-adv-x="411" d="M-92 -442l18 135q41 -6 72 -6q68 0 99.5 26.5t31.5 85.5v1061h162v-1048q0 -271 -242 -271q-54 0 -141 17zM109 1157q0 43 30 74t72 31t72 -31t30 -74q0 -42 -30 -72t-72 -30t-72 30t-30 72z" />
<glyph unicode="k" horiz-adv-x="864" d="M115 0v1501h161v-1020l365 379h201l-416 -401l436 -459h-200l-386 424v-424h-161z" />
<glyph unicode="l" horiz-adv-x="407" d="M123 0v1501h162v-1501h-162z" />
<glyph unicode="m" horiz-adv-x="1536" d="M115 0v860h153v-131q155 148 318 148q95 0 148.5 -41.5t84.5 -118.5q64 73 153.5 114t188.5 41q133 0 201 -76.5t68 -215.5v-580h-162v551q0 92 -37 139t-119 47q-128 0 -258 -137v-600h-162v541q0 104 -36.5 152t-125.5 48q-71 0 -137 -41t-117 -104v-596h-161z" />
<glyph unicode="n" horiz-adv-x="980" d="M115 0v860h153v-131q148 148 318 148q144 0 216 -79t72 -214v-584h-161v541q0 102 -41 151t-133 49q-68 0 -138.5 -40t-124.5 -99v-602h-161z" />
<glyph unicode="o" horiz-adv-x="1034" d="M82 430q0 123 53.5 224.5t154 162t228.5 60.5t228 -60.5t153 -162t53 -224.5t-53 -224t-153 -161.5t-228 -60.5q-193 0 -314.5 129t-121.5 317zM242 430q0 -141 76 -228t200 -87q123 0 199 87t76 228t-76 228t-199 87q-124 0 -200 -87t-76 -228z" />
<glyph unicode="p" horiz-adv-x="1044" d="M115 -442v1302h153v-86q118 103 289 103q172 0 289 -124t117 -317q0 -191 -123.5 -321.5t-313.5 -130.5q-136 0 -250 63v-489h-161zM274 215q40 -46 106.5 -72t141.5 -26q124 0 202.5 89t78.5 228q0 131 -76 219t-201 88q-150 0 -252 -102v-424z" />
<glyph unicode="q" horiz-adv-x="1044" d="M82 422q0 96 36.5 181.5t96 145t138.5 94t163 34.5q152 0 260 -93v76h154v-1302h-162v510q-104 -84 -256 -84q-189 0 -309.5 120t-120.5 318zM242 426q0 -139 79 -223t226 -84q65 0 123.5 29t97.5 79v398q-41 49 -107 82.5t-137 33.5q-122 0 -202 -89t-80 -226z" />
<glyph unicode="r" horiz-adv-x="606" d="M115 0v860h153v-143q60 78 140.5 119t166.5 41v-158q-96 0 -176 -34t-123 -97v-588h-161z" />
<glyph unicode="s" horiz-adv-x="716" d="M55 96l82 115q49 -44 108 -70t109 -26q73 0 110.5 32.5t37.5 90.5q0 34 -22 60.5t-57.5 44.5t-78.5 35t-86 37.5t-78.5 46t-57.5 66.5t-22 93q0 106 80.5 181t212.5 75q124 0 250 -82l-72 -121q-100 71 -184 71q-70 0 -104.5 -30.5t-34.5 -79.5q0 -29 22 -52.5t57 -40.5 t77.5 -34t85.5 -38.5t78 -48.5t57 -70t22 -97q0 -109 -80.5 -189.5t-204.5 -80.5q-169 0 -307 112z" />
<glyph unicode="t" horiz-adv-x="604" d="M29 721v20l137 133v150l158 117v-281h254v-139h-254v-483q0 -59 33 -86t102 -27q27 0 71 6l17 -131q-82 -16 -141 -16q-240 0 -240 270v467h-137z" />
<glyph unicode="u" horiz-adv-x="980" d="M106 276v584h162v-541q0 -200 181 -200q68 0 135 37t121 94v610h161v-860h-153v121q-59 -58 -144 -97.5t-166 -39.5q-146 0 -221.5 79t-75.5 213z" />
<glyph unicode="v" horiz-adv-x="890" d="M8 860h180l261 -602l260 602h174l-428 -883h-27z" />
<glyph unicode="w" horiz-adv-x="1220" d="M16 860h181l168 -561l237 565h27l254 -565l157 561h172l-305 -883h-26l-263 584l-266 -584h-26z" />
<glyph unicode="x" horiz-adv-x="854" d="M39 0l313 426l-313 434h182l217 -315l215 315h174l-309 -430l309 -430h-182l-213 311l-219 -311h-174z" />
<glyph unicode="y" horiz-adv-x="890" d="M8 860h180l263 -616l258 616h174l-609 -1302h-161l258 524z" />
<glyph unicode="z" horiz-adv-x="829" d="M37 23l504 698h-465v139h702l10 -24l-503 -697h493v-139h-731z" />
<glyph unicode="{" horiz-adv-x="608" d="M51 465v129h47q72 0 99.5 31t27.5 102v432q0 357 346 357v-144q-100 0 -149 -47t-49 -158v-407q0 -99 -27 -146t-113 -86q86 -39 113 -85t27 -146v-406q0 -113 49 -159.5t149 -46.5v-142q-346 0 -346 355v434q0 69 -27.5 101t-99.5 32h-47z" />
<glyph unicode="|" horiz-adv-x="507" d="M184 -442v1943h140v-1943h-140z" />
<glyph unicode="}" horiz-adv-x="608" d="M37 -315q100 0 149.5 47t49.5 159v406q0 101 26.5 146.5t112.5 84.5q-86 39 -112.5 85.5t-26.5 146.5v407q0 111 -49.5 158t-149.5 47v144q346 0 346 -357v-432q0 -71 27.5 -102t99.5 -31h47v-129h-47q-72 0 -99.5 -32t-27.5 -101v-434q0 -355 -346 -355v142z" />
<glyph unicode="~" d="M145 743q86 111 195 111q59 0 117 -39q56 -39 102 -39q59 0 119 76l74 -96q-86 -111 -195 -111q-58 0 -119 39q-53 39 -100 39q-59 0 -119 -76z" />
<glyph unicode="&#xa1;" horiz-adv-x="450" d="M119 1411q0 44 31 75.5t75 31.5q43 0 74 -31.5t31 -75.5q0 -43 -31 -73.5t-74 -30.5q-44 0 -75 30.5t-31 73.5zM135 0l29 1128h123l28 -1128h-180z" />
<glyph unicode="&#xa2;" horiz-adv-x="876" d="M82 426q0 171 112.5 297.5t280.5 148.5l12 146l134 -10l-11 -138q119 -14 230 -82l-66 -122q-88 52 -176 65l-47 -608q107 3 233 72l56 -123q-145 -88 -291 -88h-8l-11 -142l-133 11l11 149q-150 41 -238 158t-88 266zM238 426q0 -96 49 -171.5t133 -109.5l45 586 q-103 -21 -165 -100.5t-62 -204.5z" />
<glyph unicode="&#xa3;" horiz-adv-x="899" d="M72 0v145h135v365h-135v12l135 140v143q0 173 102.5 284t284.5 111q137 0 285 -88l-78 -135q-118 76 -230 76q-105 0 -153.5 -72t-48.5 -197v-135h252v-139h-252v-365h501v-145h-798z" />
<glyph unicode="&#xa5;" horiz-adv-x="1030" d="M51 1180h185l286 -461l279 461h178l-311 -492h252v-139h-320v-137h320v-133h-320v-279h-162v279h-327v133h327v137h-327v139h258z" />
<glyph unicode="&#xa7;" horiz-adv-x="915" d="M133 90l80 117q48 -43 119.5 -69.5t130.5 -26.5q149 0 149 110q0 35 -26 62t-68 44t-93 32.5t-101.5 34.5t-92.5 43.5t-68 65t-26 93.5q0 68 37.5 119.5t104.5 79.5q-84 57 -84 149q0 103 90 179.5t223 76.5q71 0 143 -24t125 -60l-71 -119q-102 72 -201 72 q-70 0 -112 -32.5t-42 -78.5q0 -32 34.5 -58t86 -43t112 -41t112 -49.5t86 -71.5t34.5 -105q0 -134 -127 -197q74 -58 74 -149q0 -106 -85 -185t-224 -79q-87 0 -172 29.5t-148 80.5zM289 627q0 -21 10.5 -38.5t26 -29.5t45.5 -25.5t54.5 -22.5t70 -24.5t75.5 -27.5 q43 11 71 40.5t28 67.5q0 52 -53.5 88.5t-202.5 79.5q-55 -6 -90 -36.5t-35 -71.5z" />
<glyph unicode="&#xa8;" d="M170 1114q0 43 30.5 74t71.5 31q43 0 74 -31t31 -74q0 -41 -31 -71.5t-74 -30.5q-41 0 -71.5 30.5t-30.5 71.5zM524 1114q0 43 31 74t74 31q41 0 71.5 -31t30.5 -74q0 -41 -30.5 -71.5t-71.5 -30.5q-43 0 -74 30.5t-31 71.5z" />
<glyph unicode="&#xa9;" horiz-adv-x="1724" d="M102 750q0 158 60 301.5t162 247.5t242.5 165.5t295.5 61.5t295.5 -61.5t242.5 -165.5t162 -247.5t60 -301.5t-60 -301.5t-162 -247t-242.5 -165t-295.5 -61.5t-295.5 61.5t-242.5 165t-162 247t-60 301.5zM240 750q0 -177 83 -327.5t226.5 -238.5t312.5 -88t312.5 88 t227 238.5t83.5 327.5q0 178 -83.5 329t-227 238.5t-312.5 87.5q-127 0 -242 -52t-198.5 -139.5t-132.5 -209t-49 -254.5zM494 758q0 167 114.5 277t290.5 110q126 0 242 -68l-43 -108q-102 57 -201 57q-123 0 -193.5 -74t-70.5 -194t72.5 -194.5t195.5 -74.5q102 0 203 60 l41 -109q-111 -69 -246 -69q-178 0 -291.5 109t-113.5 278z" />
<glyph unicode="&#xaa;" horiz-adv-x="700" d="M63 1067q0 86 64 142.5t164 56.5q89 0 180 -41v30q0 76 -39 111t-119 35q-74 0 -159 -29l-21 121q108 33 203 33q287 0 287 -277v-370h-148v63q-74 -74 -186 -74q-97 0 -161.5 53.5t-64.5 145.5zM209 1073q0 -46 32 -71t91 -25q79 0 139 63v80q-75 45 -147 45 q-52 0 -83.5 -23.5t-31.5 -68.5z" />
<glyph unicode="&#xab;" horiz-adv-x="866" d="M100 354l215 334h162l-225 -334l225 -336h-162zM397 354l215 334h162l-225 -334l225 -336h-162z" />
<glyph unicode="&#xad;" horiz-adv-x="694" d="M102 426v139h490v-139h-490z" />
<glyph unicode="&#xae;" horiz-adv-x="790" d="M47 1169q0 148 101.5 252.5t246.5 104.5t246.5 -104.5t101.5 -252.5q0 -145 -102 -249.5t-246 -104.5q-145 0 -246.5 104t-101.5 250zM111 1169q0 -122 83.5 -209.5t200.5 -87.5q118 0 201.5 88t83.5 209q0 123 -83.5 211t-201.5 88q-117 0 -200.5 -88t-83.5 -211z M283 999v344q51 7 96 7q70 0 107.5 -31.5t37.5 -79.5q0 -34 -17 -62t-48 -40l90 -138h-76l-76 123q-10 -2 -22 -2l-27 2v-123h-65zM348 1176q14 -2 33 -2q74 0 74 63q0 25 -18.5 40t-51.5 15q-27 0 -37 -2v-114z" />
<glyph unicode="&#xaf;" d="M158 1026v137h587v-137h-587z" />
<glyph unicode="&#xb0;" d="M227 1192q0 94 63 155.5t161 61.5t160.5 -61.5t62.5 -155.5t-62.5 -153.5t-160.5 -59.5t-161 59.5t-63 153.5zM342 1194q0 -54 30 -87.5t79 -33.5t78.5 33.5t29.5 87.5q0 53 -29.5 87t-78.5 34t-79 -33.5t-30 -87.5z" />
<glyph unicode="&#xb4;" d="M225 1061l359 256l80 -164l-392 -182z" />
<glyph unicode="&#xb6;" horiz-adv-x="1212" d="M117 729q0 213 168 342t448 129q129 0 326 -24v-1176h-148v1036q-43 7 -133 11v-1047h-147v326q-105 -5 -197 18.5t-163 72.5t-112.5 129.5t-41.5 182.5zM293 737q0 -91 49 -154.5t124.5 -89t164.5 -18.5v569q-164 -15 -251 -96.5t-87 -210.5z" />
<glyph unicode="&#xb7;" horiz-adv-x="614" d="M203 750q0 43 30.5 73.5t73.5 30.5q44 0 75.5 -30.5t31.5 -73.5q0 -44 -31.5 -75.5t-75.5 -31.5q-43 0 -73.5 31.5t-30.5 75.5z" />
<glyph unicode="&#xb8;" d="M270 -416l47 94q93 -55 175 -55q37 0 58 20.5t21 53.5q0 41 -46.5 70.5t-143.5 35.5l-8 17l55 209l94 -25l-28 -108q200 -45 200 -195q0 -79 -52 -132.5t-150 -53.5q-102 0 -222 69z" />
<glyph unicode="&#xba;" horiz-adv-x="739" d="M41 1196q0 140 90.5 235t237.5 95t238 -95t91 -235q0 -139 -91 -233.5t-238 -94.5t-237.5 94.5t-90.5 233.5zM193 1196q0 -94 47.5 -149.5t128.5 -55.5q82 0 130 55.5t48 149.5q0 95 -48 151t-130 56t-129 -56t-47 -151z" />
<glyph unicode="&#xbb;" horiz-adv-x="866" d="M92 18l225 336l-225 334h162l215 -334l-215 -336h-162zM389 18l225 336l-225 334h162l215 -334l-215 -336h-162z" />
<glyph unicode="&#xbf;" horiz-adv-x="786" d="M47 326q0 61 20.5 115t54 95t73.5 78.5t79.5 72.5t73 70.5t54 79t20.5 91.5v157h149v-200q0 -51 -19.5 -97.5t-51.5 -83.5t-70 -72.5t-76 -69.5t-70 -68t-51.5 -75.5t-19.5 -84.5q0 -92 62 -142.5t184 -50.5q116 0 237 47l45 -147q-157 -55 -297 -55q-191 0 -294 95.5 t-103 244.5zM393 1411q0 44 31.5 75.5t75.5 31.5q43 0 73.5 -31.5t30.5 -75.5q0 -43 -30.5 -73.5t-73.5 -30.5q-44 0 -75.5 30.5t-31.5 73.5z" />
<glyph unicode="&#xc0;" horiz-adv-x="1394" d="M10 0l674 1528h27l673 -1528h-176l-178 416h-672l-178 -416h-170zM369 1808l86 160l358 -256l-53 -86zM418 553h553l-277 645z" />
<glyph unicode="&#xc1;" horiz-adv-x="1394" d="M10 0l674 1528h27l673 -1528h-176l-178 416h-672l-178 -416h-170zM418 553h553l-277 645zM582 1716l358 256l80 -164l-391 -182z" />
<glyph unicode="&#xc2;" horiz-adv-x="1394" d="M10 0l674 1528h27l673 -1528h-176l-178 416h-672l-178 -416h-170zM397 1657l273 328h59l266 -328h-168l-137 174l-135 -174h-158zM418 553h553l-277 645z" />
<glyph unicode="&#xc3;" horiz-adv-x="1394" d="M10 0l674 1528h27l673 -1528h-176l-178 416h-672l-178 -416h-170zM399 1757q42 54 93 82.5t102 28.5q59 0 117 -39q56 -39 102 -39q59 0 119 76l74 -97q-85 -110 -195 -110q-58 0 -119 39q-53 39 -100 39q-59 0 -119 -76zM418 553h553l-277 645z" />
<glyph unicode="&#xc4;" horiz-adv-x="1394" d="M10 0l674 1528h27l673 -1528h-176l-178 416h-672l-178 -416h-170zM416 1769q0 43 30.5 74t71.5 31q43 0 74 -31t31 -74q0 -41 -31 -71.5t-74 -30.5q-41 0 -71.5 30.5t-30.5 71.5zM418 553h553l-277 645zM770 1769q0 43 30.5 74t73.5 31q41 0 72 -31t31 -74 q0 -41 -31 -71.5t-72 -30.5q-43 0 -73.5 30.5t-30.5 71.5z" />
<glyph unicode="&#xc5;" horiz-adv-x="1394" d="M10 0l639 1452q-78 13 -123 70t-45 135q0 90 59 150.5t158 60.5t158 -60.5t59 -150.5q0 -80 -46 -137t-126 -70l641 -1450h-176l-178 416h-672l-178 -416h-170zM418 553h553l-277 645zM594 1659q0 -52 29.5 -84.5t74.5 -32.5t75 32.5t30 84.5q0 51 -30 84t-75 33 t-74.5 -32.5t-29.5 -84.5z" />
<glyph unicode="&#xc6;" horiz-adv-x="2088" d="M0 0l1077 1501h879v-147h-715v-518h643v-148h-643v-541h715v-147h-879v483h-547l-342 -483h-188zM629 621h448v632z" />
<glyph unicode="&#xc7;" horiz-adv-x="1462" d="M113 750q0 163 61 307t166 247t253 162.5t316 59.5q139 0 267.5 -41t228.5 -103l-68 -139q-98 57 -218 93t-224 36q-185 0 -323.5 -82t-209.5 -222t-71 -318q0 -177 74.5 -317.5t216 -222t327.5 -81.5q104 0 224.5 36t218.5 93l53 -139q-217 -136 -473 -144l-21 -79 q201 -46 201 -195q0 -79 -52.5 -132.5t-150.5 -53.5q-101 0 -221 69l47 94q93 -55 174 -55q37 0 58.5 20.5t21.5 53.5q0 41 -46.5 70.5t-143.5 35.5l-8 17l40 160q-209 16 -372.5 118t-254.5 272t-91 380z" />
<glyph unicode="&#xc8;" horiz-adv-x="1175" d="M164 0v1501h878v-147h-714v-518h643v-148h-643v-541h714v-147h-878zM281 1808l86 160l358 -256l-53 -86z" />
<glyph unicode="&#xc9;" horiz-adv-x="1175" d="M164 0v1501h878v-147h-714v-518h643v-148h-643v-541h714v-147h-878zM494 1716l358 256l80 -164l-391 -182z" />
<glyph unicode="&#xca;" horiz-adv-x="1175" d="M164 0v1501h878v-147h-714v-518h643v-148h-643v-541h714v-147h-878zM309 1657l273 328h59l266 -328h-168l-137 174l-135 -174h-158z" />
<glyph unicode="&#xcb;" horiz-adv-x="1175" d="M164 0v1501h878v-147h-714v-518h643v-148h-643v-541h714v-147h-878zM328 1769q0 43 30.5 74t71.5 31q43 0 74 -31t31 -74q0 -41 -31 -71.5t-74 -30.5q-41 0 -71.5 30.5t-30.5 71.5zM682 1769q0 43 30.5 74t73.5 31q41 0 72 -31t31 -74q0 -41 -31 -71.5t-72 -30.5 q-43 0 -73.5 30.5t-30.5 71.5z" />
<glyph unicode="&#xcc;" horiz-adv-x="509" d="M-74 1808l86 160l359 -256l-54 -86zM174 0v1501h164v-1501h-164z" />
<glyph unicode="&#xcd;" horiz-adv-x="509" d="M139 1716l359 256l80 -164l-392 -182zM174 0v1501h164v-1501h-164z" />
<glyph unicode="&#xce;" horiz-adv-x="509" d="M-45 1657l272 328h60l266 -328h-168l-137 174l-135 -174h-158zM174 0v1501h164v-1501h-164z" />
<glyph unicode="&#xcf;" horiz-adv-x="509" d="M-27 1769q0 43 31 74t72 31q43 0 73.5 -31t30.5 -74q0 -41 -30.5 -71.5t-73.5 -30.5q-41 0 -72 30.5t-31 71.5zM174 0v1501h164v-1501h-164zM328 1769q0 43 30.5 74t73.5 31q41 0 72 -31t31 -74q0 -41 -31 -71.5t-72 -30.5q-43 0 -73.5 30.5t-30.5 71.5z" />
<glyph unicode="&#xd0;" horiz-adv-x="1566" d="M20 688v148h185v651q197 24 391 24q164 0 304.5 -40.5t241 -111.5t172 -166t106 -203.5t34.5 -225.5q0 -122 -33 -235.5t-102.5 -212t-168 -171.5t-237.5 -115t-303 -42q-171 0 -405 24v676h-185zM369 145q84 -16 264 -16q130 0 236.5 32t181 89t126 137t75.5 174.5 t24 202.5q0 131 -43 242t-125 192.5t-209 127.5t-287 46q-158 0 -243 -16v-520h223v-148h-223v-543z" />
<glyph unicode="&#xd1;" horiz-adv-x="1486" d="M164 0v1522l33 8l962 -1149v1120h164v-1524l-20 -6l-975 1168v-1139h-164zM446 1726q86 111 195 111q59 0 117 -39q56 -39 102 -39q59 0 119 76l74 -96q-42 -54 -93 -82.5t-102 -28.5q-58 0 -119 39q-53 39 -100 39q-59 0 -119 -76z" />
<glyph unicode="&#xd2;" horiz-adv-x="1722" d="M113 750q0 165 61 311t164 247t241 159.5t289 58.5t287 -58.5t236.5 -160t159.5 -246.5t59 -311q0 -165 -61.5 -310.5t-164.5 -246.5t-241 -159.5t-289 -58.5t-287 58.5t-236 159.5t-159 246t-59 311zM291 750q0 -176 72.5 -319.5t203.5 -226.5t295 -83q163 0 294 83 t203.5 227t72.5 319t-72.5 318.5t-203.5 226.5t-294 83q-164 0 -295 -83t-203.5 -226t-72.5 -319zM532 1808l86 160l359 -256l-53 -86z" />
<glyph unicode="&#xd3;" horiz-adv-x="1722" d="M113 750q0 165 61 311t164 247t241 159.5t289 58.5t287 -58.5t236.5 -160t159.5 -246.5t59 -311q0 -165 -61.5 -310.5t-164.5 -246.5t-241 -159.5t-289 -58.5t-287 58.5t-236 159.5t-159 246t-59 311zM291 750q0 -176 72.5 -319.5t203.5 -226.5t295 -83q163 0 294 83 t203.5 227t72.5 319t-72.5 318.5t-203.5 226.5t-294 83q-164 0 -295 -83t-203.5 -226t-72.5 -319zM745 1716l359 256l80 -164l-391 -182z" />
<glyph unicode="&#xd4;" horiz-adv-x="1722" d="M113 750q0 165 61 311t164 247t241 159.5t289 58.5t287 -58.5t236.5 -160t159.5 -246.5t59 -311q0 -165 -61.5 -310.5t-164.5 -246.5t-241 -159.5t-289 -58.5t-287 58.5t-236 159.5t-159 246t-59 311zM291 750q0 -176 72.5 -319.5t203.5 -226.5t295 -83q163 0 294 83 t203.5 227t72.5 319t-72.5 318.5t-203.5 226.5t-294 83q-164 0 -295 -83t-203.5 -226t-72.5 -319zM561 1657l273 328h59l266 -328h-168l-137 174l-135 -174h-158z" />
<glyph unicode="&#xd5;" horiz-adv-x="1722" d="M113 750q0 165 61 311t164 247t241 159.5t289 58.5t287 -58.5t236.5 -160t159.5 -246.5t59 -311q0 -165 -61.5 -310.5t-164.5 -246.5t-241 -159.5t-289 -58.5t-287 58.5t-236 159.5t-159 246t-59 311zM291 750q0 -176 72.5 -319.5t203.5 -226.5t295 -83q163 0 294 83 t203.5 227t72.5 319t-72.5 318.5t-203.5 226.5t-294 83q-164 0 -295 -83t-203.5 -226t-72.5 -319zM563 1757q42 54 93 82.5t102 28.5q58 0 116 -39q56 -39 103 -39q59 0 119 76l73 -97q-85 -110 -194 -110q-58 0 -119 39q-53 39 -100 39q-59 0 -119 -76z" />
<glyph unicode="&#xd6;" horiz-adv-x="1722" d="M113 750q0 165 61 311t164 247t241 159.5t289 58.5t287 -58.5t236.5 -160t159.5 -246.5t59 -311q0 -165 -61.5 -310.5t-164.5 -246.5t-241 -159.5t-289 -58.5t-287 58.5t-236 159.5t-159 246t-59 311zM291 750q0 -176 72.5 -319.5t203.5 -226.5t295 -83q163 0 294 83 t203.5 227t72.5 319t-72.5 318.5t-203.5 226.5t-294 83q-164 0 -295 -83t-203.5 -226t-72.5 -319zM580 1769q0 43 30.5 74t71.5 31q43 0 73.5 -31t30.5 -74q0 -41 -30.5 -71.5t-73.5 -30.5q-41 0 -71.5 30.5t-30.5 71.5zM934 1769q0 43 30.5 74t73.5 31q41 0 72 -31t31 -74 q0 -41 -31 -71.5t-72 -30.5q-43 0 -73.5 30.5t-30.5 71.5z" />
<glyph unicode="&#xd7;" d="M123 360l229 230l-229 229l98 99l230 -230l229 230l98 -99l-229 -229l229 -230l-98 -98l-229 230l-230 -230z" />
<glyph unicode="&#xd8;" horiz-adv-x="1722" d="M113 750q0 165 61 311t164 247t241 159.5t289 58.5q271 0 473 -174l152 159l100 -100l-153 -160q170 -213 170 -501q0 -165 -61.5 -310.5t-164.5 -246.5t-241 -159.5t-289 -58.5q-269 0 -473 172l-152 -159l-100 102q10 10 26 26.5t49.5 51t55.5 57.5t21 23 q-168 215 -168 502zM291 750q0 -219 108 -379l832 866q-154 141 -369 141q-164 0 -295 -83t-203.5 -226t-72.5 -319zM492 260q155 -139 370 -139q163 0 294 83t203.5 227t72.5 319q0 216 -109 378q-831 -866 -831 -868z" />
<glyph unicode="&#xd9;" horiz-adv-x="1421" d="M145 539v962h164v-950q0 -217 107 -322.5t293 -105.5q184 0 293.5 106.5t109.5 321.5v950h164v-962q0 -259 -156 -411.5t-411 -152.5q-261 0 -412.5 148.5t-151.5 415.5zM385 1778l86 159l358 -256l-53 -86z" />
<glyph unicode="&#xda;" horiz-adv-x="1421" d="M145 539v962h164v-950q0 -217 107 -322.5t293 -105.5q184 0 293.5 106.5t109.5 321.5v950h164v-962q0 -259 -156 -411.5t-411 -152.5q-261 0 -412.5 148.5t-151.5 415.5zM598 1686l358 256l80 -164l-391 -183z" />
<glyph unicode="&#xdb;" horiz-adv-x="1421" d="M145 539v962h164v-950q0 -217 107 -322.5t293 -105.5q184 0 293.5 106.5t109.5 321.5v950h164v-962q0 -259 -156 -411.5t-411 -152.5q-261 0 -412.5 148.5t-151.5 415.5zM414 1626l272 328h59l267 -328h-168l-137 174l-136 -174h-157z" />
<glyph unicode="&#xdc;" horiz-adv-x="1421" d="M145 539v962h164v-950q0 -217 107 -322.5t293 -105.5q184 0 293.5 106.5t109.5 321.5v950h164v-962q0 -259 -156 -411.5t-411 -152.5q-261 0 -412.5 148.5t-151.5 415.5zM432 1739q0 43 31 73.5t72 30.5q43 0 73.5 -30.5t30.5 -73.5q0 -41 -30.5 -72t-73.5 -31 q-41 0 -72 31t-31 72zM786 1739q0 43 31 73.5t74 30.5q41 0 71.5 -30.5t30.5 -73.5q0 -41 -30.5 -72t-71.5 -31q-43 0 -74 31t-31 72z" />
<glyph unicode="&#xdd;" horiz-adv-x="1300" d="M41 1501h184l430 -696l424 696h181l-529 -835v-666h-164v668zM535 1686l358 256l80 -164l-391 -183z" />
<glyph unicode="&#xde;" horiz-adv-x="1128" d="M164 0v1501h164v-258q79 8 180 8q141 0 253 -39t181.5 -106t106 -152.5t36.5 -183.5q0 -230 -157.5 -373t-429.5 -143q-68 0 -170 8v-262h-164zM328 414q110 -13 180 -13q200 0 300.5 100t100.5 257q0 67 -24.5 128t-70.5 109t-119 76.5t-163 28.5q-129 0 -204 -17v-669z " />
<glyph unicode="&#xdf;" horiz-adv-x="1001" d="M133 0v1102q0 202 85 308t253 106q69 0 133 -19l-26 -139q-42 10 -80 10q-114 0 -159.5 -54.5t-45.5 -189.5v-264h661l11 -24l-281 -379q134 -25 195 -105t61 -194q0 -90 -33 -159t-91.5 -110t-132 -61.5t-159.5 -20.5q-48 0 -123 11l21 139q49 -8 100 -8q124 0 192 52 t68 149q0 84 -59 135t-184 51q-47 0 -74 -4l-12 28l256 361h-416v-721h-160z" />
<glyph unicode="&#xe0;" horiz-adv-x="892" d="M68 260q0 116 88 192t221 76q80 0 135.5 -14t124.5 -43v51q0 110 -53.5 161.5t-171.5 51.5q-125 0 -226 -43l-26 139q147 46 272 46q185 0 274 -89.5t89 -275.5v-512h-150v90q-109 -106 -266 -106q-133 0 -222 74t-89 202zM133 1153l86 160l359 -256l-54 -86zM221 260 q0 -70 52 -108.5t147 -38.5q125 0 217 106v117q-71 39 -119.5 54.5t-114.5 15.5q-85 0 -133.5 -37.5t-48.5 -108.5z" />
<glyph unicode="&#xe1;" horiz-adv-x="892" d="M68 260q0 116 88 192t221 76q80 0 135.5 -14t124.5 -43v51q0 110 -53.5 161.5t-171.5 51.5q-125 0 -226 -43l-26 139q147 46 272 46q185 0 274 -89.5t89 -275.5v-512h-150v90q-109 -106 -266 -106q-133 0 -222 74t-89 202zM221 260q0 -70 52 -108.5t147 -38.5 q125 0 217 106v117q-71 39 -119.5 54.5t-114.5 15.5q-85 0 -133.5 -37.5t-48.5 -108.5zM346 1061l359 256l79 -164l-391 -182z" />
<glyph unicode="&#xe2;" horiz-adv-x="892" d="M68 260q0 116 88 192t221 76q80 0 135.5 -14t124.5 -43v51q0 110 -53.5 161.5t-171.5 51.5q-125 0 -226 -43l-26 139q147 46 272 46q185 0 274 -89.5t89 -275.5v-512h-150v90q-109 -106 -266 -106q-133 0 -222 74t-89 202zM162 1001l272 328h60l266 -328h-168l-137 175 l-136 -175h-157zM221 260q0 -70 52 -108.5t147 -38.5q125 0 217 106v117q-71 39 -119.5 54.5t-114.5 15.5q-85 0 -133.5 -37.5t-48.5 -108.5z" />
<glyph unicode="&#xe3;" horiz-adv-x="892" d="M68 260q0 116 88 192t221 76q80 0 135.5 -14t124.5 -43v51q0 110 -53.5 161.5t-171.5 51.5q-125 0 -226 -43l-26 139q147 46 272 46q185 0 274 -89.5t89 -275.5v-512h-150v90q-109 -106 -266 -106q-133 0 -222 74t-89 202zM164 1102q85 110 194 110q61 0 117 -38 q56 -39 103 -39q58 0 118 75l74 -96q-85 -110 -195 -110q-59 0 -118 38q-53 39 -101 39q-58 0 -118 -75zM221 260q0 -70 52 -108.5t147 -38.5q125 0 217 106v117q-71 39 -119.5 54.5t-114.5 15.5q-85 0 -133.5 -37.5t-48.5 -108.5z" />
<glyph unicode="&#xe4;" horiz-adv-x="892" d="M68 260q0 116 88 192t221 76q80 0 135.5 -14t124.5 -43v51q0 110 -53.5 161.5t-171.5 51.5q-125 0 -226 -43l-26 139q147 46 272 46q185 0 274 -89.5t89 -275.5v-512h-150v90q-109 -106 -266 -106q-133 0 -222 74t-89 202zM180 1114q0 43 31 74t72 31q43 0 73.5 -31 t30.5 -74q0 -41 -30.5 -71.5t-73.5 -30.5q-41 0 -72 30.5t-31 71.5zM221 260q0 -70 52 -108.5t147 -38.5q125 0 217 106v117q-71 39 -119.5 54.5t-114.5 15.5q-85 0 -133.5 -37.5t-48.5 -108.5zM535 1114q0 43 30.5 74t73.5 31q41 0 71.5 -31t30.5 -74q0 -41 -30.5 -71.5 t-71.5 -30.5q-43 0 -73.5 30.5t-30.5 71.5z" />
<glyph unicode="&#xe5;" horiz-adv-x="892" d="M68 260q0 116 88 192t221 76q80 0 135.5 -14t124.5 -43v51q0 110 -53.5 161.5t-171.5 51.5q-125 0 -226 -43l-26 139q147 46 272 46q185 0 274 -89.5t89 -275.5v-512h-150v90q-109 -106 -266 -106q-133 0 -222 74t-89 202zM221 260q0 -70 52 -108.5t147 -38.5 q125 0 217 106v117q-71 39 -119.5 54.5t-114.5 15.5q-85 0 -133.5 -37.5t-48.5 -108.5zM244 1202q0 90 59 150.5t158 60.5t158 -60.5t59 -150.5t-59 -149.5t-158 -59.5t-158 59.5t-59 149.5zM356 1204q0 -52 30 -84.5t75 -32.5t74.5 32.5t29.5 84.5q0 51 -29.5 84t-74.5 33 t-75 -32.5t-30 -84.5z" />
<glyph unicode="&#xe6;" horiz-adv-x="1499" d="M68 260q0 116 88 192t219 76q133 0 262 -59v53q0 110 -53 161.5t-172 51.5q-121 0 -226 -43l-26 139q147 46 274 46q119 0 193.5 -38t111.5 -116q114 154 316 154q176 0 276.5 -116.5t100.5 -297.5q0 -28 -7 -82h-630q28 -258 321 -258q100 0 236 47l28 -137 q-162 -49 -278 -49q-258 0 -377 172q-57 -82 -148 -127t-198 -45q-132 0 -221.5 74.5t-89.5 201.5zM221 260q0 -70 52 -108.5t147 -38.5q75 0 138.5 49t90.5 149q-39 41 -108 68t-138 27q-85 0 -133.5 -37.5t-48.5 -108.5zM801 504h481q-8 106 -69 171.5t-171 65.5 q-102 0 -164.5 -63t-76.5 -174z" />
<glyph unicode="&#xe7;" horiz-adv-x="876" d="M82 426q0 189 132 320t333 131q151 0 293 -89l-66 -122q-121 71 -242 71q-129 0 -211.5 -83.5t-82.5 -227.5q0 -135 90.5 -219t214.5 -84q118 0 241 72l56 -123q-140 -88 -293 -88h-19l-22 -88q201 -46 201 -195q0 -79 -52.5 -132.5t-150.5 -53.5q-101 0 -221 69l47 94 q93 -55 174 -55q37 0 58.5 20.5t21.5 53.5q0 41 -47 70.5t-144 35.5l-8 17l45 176q-156 34 -252 152.5t-96 277.5z" />
<glyph unicode="&#xe8;" horiz-adv-x="944" d="M82 426q0 120 48 221.5t145 165.5t225 64q177 0 277 -116.5t100 -297.5q0 -46 -7 -82h-630q32 -258 321 -258q99 0 238 47l28 -137q-166 -49 -280 -49q-223 0 -344 123.5t-121 318.5zM168 1153l86 160l358 -256l-53 -86zM246 504h481q-8 106 -68.5 171.5t-169.5 65.5 q-103 0 -166 -62.5t-77 -174.5z" />
<glyph unicode="&#xe9;" horiz-adv-x="944" d="M82 426q0 120 48 221.5t145 165.5t225 64q177 0 277 -116.5t100 -297.5q0 -46 -7 -82h-630q32 -258 321 -258q99 0 238 47l28 -137q-166 -49 -280 -49q-223 0 -344 123.5t-121 318.5zM246 504h481q-8 106 -68.5 171.5t-169.5 65.5q-103 0 -166 -62.5t-77 -174.5z M381 1061l358 256l80 -164l-391 -182z" />
<glyph unicode="&#xea;" horiz-adv-x="944" d="M82 426q0 120 48 221.5t145 165.5t225 64q177 0 277 -116.5t100 -297.5q0 -46 -7 -82h-630q32 -258 321 -258q99 0 238 47l28 -137q-166 -49 -280 -49q-223 0 -344 123.5t-121 318.5zM197 1001l272 328h59l267 -328h-168l-138 175l-135 -175h-157zM246 504h481 q-8 106 -68.5 171.5t-169.5 65.5q-103 0 -166 -62.5t-77 -174.5z" />
<glyph unicode="&#xeb;" horiz-adv-x="944" d="M82 426q0 120 48 221.5t145 165.5t225 64q177 0 277 -116.5t100 -297.5q0 -46 -7 -82h-630q32 -258 321 -258q99 0 238 47l28 -137q-166 -49 -280 -49q-223 0 -344 123.5t-121 318.5zM215 1114q0 43 30.5 74t71.5 31q43 0 74 -31t31 -74q0 -41 -31 -71.5t-74 -30.5 q-41 0 -71.5 30.5t-30.5 71.5zM246 504h481q-8 106 -68.5 171.5t-169.5 65.5q-103 0 -166 -62.5t-77 -174.5zM569 1114q0 43 31 74t74 31q41 0 71.5 -31t30.5 -74q0 -41 -30.5 -71.5t-71.5 -30.5q-43 0 -74 30.5t-31 71.5z" />
<glyph unicode="&#xec;" horiz-adv-x="425" d="M-115 1153l86 160l359 -256l-54 -86zM133 0v860h162v-860h-162z" />
<glyph unicode="&#xed;" horiz-adv-x="425" d="M98 1061l359 256l80 -164l-392 -182zM133 0v860h162v-860h-162z" />
<glyph unicode="&#xee;" horiz-adv-x="425" d="M-86 1001l272 328h60l266 -328h-168l-137 175l-135 -175h-158zM133 0v860h162v-860h-162z" />
<glyph unicode="&#xef;" horiz-adv-x="425" d="M-68 1114q0 43 31 74t72 31q43 0 73.5 -31t30.5 -74q0 -41 -30.5 -71.5t-73.5 -30.5q-41 0 -72 30.5t-31 71.5zM133 0v860h162v-860h-162zM287 1114q0 43 30.5 74t73.5 31q41 0 72 -31t31 -74q0 -41 -31 -71.5t-72 -30.5q-43 0 -73.5 30.5t-30.5 71.5z" />
<glyph unicode="&#xf0;" horiz-adv-x="1036" d="M82 449q0 185 112 307.5t281 122.5q179 0 289 -123q-66 230 -289 428l-166 -148l-82 97l148 131q-87 62 -213 120l65 121q140 -64 254 -145l135 123l82 -99l-116 -104q176 -153 274 -355.5t98 -451.5q0 -219 -122 -354t-316 -135q-106 0 -190 37t-136.5 101.5t-80 147.5 t-27.5 179zM240 438q0 -131 76.5 -226t199.5 -95q128 0 204.5 89.5t76.5 227.5q0 135 -78.5 223t-208.5 88q-122 0 -196 -84t-74 -223z" />
<glyph unicode="&#xf1;" horiz-adv-x="980" d="M115 0v860h153v-131q148 148 318 148q144 0 216 -79t72 -214v-584h-161v541q0 102 -41 151t-133 49q-68 0 -138.5 -40t-124.5 -99v-602h-161zM197 1102q85 110 194 110q61 0 117 -38q56 -39 102 -39q59 0 119 75l74 -96q-85 -110 -195 -110q-60 0 -119 38q-53 39 -100 39 q-59 0 -119 -75z" />
<glyph unicode="&#xf2;" horiz-adv-x="1034" d="M82 430q0 123 53.5 224.5t154 162t228.5 60.5t228 -60.5t153 -162t53 -224.5t-53 -224t-153 -161.5t-228 -60.5q-193 0 -314.5 129t-121.5 317zM188 1153l86 160l359 -256l-53 -86zM242 430q0 -141 76 -228t200 -87q123 0 199 87t76 228t-76 228t-199 87q-124 0 -200 -87 t-76 -228z" />
<glyph unicode="&#xf3;" horiz-adv-x="1034" d="M82 430q0 123 53.5 224.5t154 162t228.5 60.5t228 -60.5t153 -162t53 -224.5t-53 -224t-153 -161.5t-228 -60.5q-193 0 -314.5 129t-121.5 317zM242 430q0 -141 76 -228t200 -87q123 0 199 87t76 228t-76 228t-199 87q-124 0 -200 -87t-76 -228zM401 1061l359 256 l80 -164l-391 -182z" />
<glyph unicode="&#xf4;" horiz-adv-x="1034" d="M82 430q0 123 53.5 224.5t154 162t228.5 60.5t228 -60.5t153 -162t53 -224.5t-53 -224t-153 -161.5t-228 -60.5q-193 0 -314.5 129t-121.5 317zM217 1001l272 328h60l266 -328h-168l-137 175l-135 -175h-158zM242 430q0 -141 76 -228t200 -87q123 0 199 87t76 228 t-76 228t-199 87q-124 0 -200 -87t-76 -228z" />
<glyph unicode="&#xf5;" horiz-adv-x="1034" d="M82 430q0 123 53.5 224.5t154 162t228.5 60.5t228 -60.5t153 -162t53 -224.5t-53 -224t-153 -161.5t-228 -60.5q-193 0 -314.5 129t-121.5 317zM219 1102q85 110 195 110q60 0 116 -38q56 -39 103 -39q59 0 119 75l73 -96q-85 -110 -194 -110q-60 0 -119 38 q-53 39 -100 39q-59 0 -119 -75zM242 430q0 -141 76 -228t200 -87q123 0 199 87t76 228t-76 228t-199 87q-124 0 -200 -87t-76 -228z" />
<glyph unicode="&#xf6;" horiz-adv-x="1034" d="M82 430q0 123 53.5 224.5t154 162t228.5 60.5t228 -60.5t153 -162t53 -224.5t-53 -224t-153 -161.5t-228 -60.5q-193 0 -314.5 129t-121.5 317zM236 1114q0 43 30.5 74t71.5 31q43 0 73.5 -31t30.5 -74q0 -41 -30.5 -71.5t-73.5 -30.5q-41 0 -71.5 30.5t-30.5 71.5z M242 430q0 -141 76 -228t200 -87q123 0 199 87t76 228t-76 228t-199 87q-124 0 -200 -87t-76 -228zM590 1114q0 43 30.5 74t73.5 31q41 0 72 -31t31 -74q0 -41 -31 -71.5t-72 -30.5q-43 0 -73.5 30.5t-30.5 71.5z" />
<glyph unicode="&#xf7;" horiz-adv-x="942" d="M123 520v139h696v-139h-696zM369 309q0 43 30 74t72 31t72 -31t30 -74q0 -42 -30 -72t-72 -30t-72 30t-30 72zM369 868q0 43 30 74t72 31t72 -31t30 -74q0 -42 -30 -72t-72 -30t-72 30t-30 72z" />
<glyph unicode="&#xf8;" horiz-adv-x="1034" d="M57 63l105 99q-80 119 -80 268q0 191 121.5 319t314.5 128q173 0 285 -103l96 92l78 -80l-100 -94q75 -113 75 -262q0 -191 -120.5 -318.5t-313.5 -127.5q-164 0 -280 96l-101 -96zM240 430q0 -94 30 -164l432 412q-70 67 -184 67q-128 0 -203 -84t-75 -231zM338 176 q70 -61 180 -61q127 0 202 84t75 231q0 84 -29 156z" />
<glyph unicode="&#xf9;" horiz-adv-x="980" d="M106 276v584h162v-541q0 -200 181 -200q68 0 135 37t121 94v610h161v-860h-153v121q-59 -58 -144 -97.5t-166 -39.5q-146 0 -221.5 79t-75.5 213zM158 1153l86 160l358 -256l-53 -86z" />
<glyph unicode="&#xfa;" horiz-adv-x="980" d="M106 276v584h162v-541q0 -200 181 -200q68 0 135 37t121 94v610h161v-860h-153v121q-59 -58 -144 -97.5t-166 -39.5q-146 0 -221.5 79t-75.5 213zM371 1061l358 256l80 -164l-391 -182z" />
<glyph unicode="&#xfb;" horiz-adv-x="980" d="M106 276v584h162v-541q0 -200 181 -200q68 0 135 37t121 94v610h161v-860h-153v121q-59 -58 -144 -97.5t-166 -39.5q-146 0 -221.5 79t-75.5 213zM186 1001l273 328h59l266 -328h-168l-137 175l-135 -175h-158z" />
<glyph unicode="&#xfc;" horiz-adv-x="980" d="M106 276v584h162v-541q0 -200 181 -200q68 0 135 37t121 94v610h161v-860h-153v121q-59 -58 -144 -97.5t-166 -39.5q-146 0 -221.5 79t-75.5 213zM205 1114q0 43 30.5 74t71.5 31q43 0 74 -31t31 -74q0 -41 -31 -71.5t-74 -30.5q-41 0 -71.5 30.5t-30.5 71.5zM559 1114 q0 43 31 74t74 31q41 0 71.5 -31t30.5 -74q0 -41 -30.5 -71.5t-71.5 -30.5q-43 0 -74 30.5t-31 71.5z" />
<glyph unicode="&#xfd;" horiz-adv-x="890" d="M8 860h180l263 -616l258 616h174l-609 -1302h-161l258 524zM330 1061l358 256l80 -164l-391 -182z" />
<glyph unicode="&#xfe;" horiz-adv-x="1044" d="M115 -442v1943h153v-727q118 103 289 103q172 0 289 -124t117 -317q0 -191 -123.5 -321.5t-313.5 -130.5q-136 0 -250 63v-489h-161zM274 215q40 -46 106.5 -72t141.5 -26q124 0 202.5 89t78.5 228q0 131 -76 219t-201 88q-150 0 -252 -102v-424z" />
<glyph unicode="&#xff;" horiz-adv-x="890" d="M8 860h180l263 -616l258 616h174l-609 -1302h-161l258 524zM164 1114q0 43 30.5 74t71.5 31q43 0 74 -31t31 -74q0 -41 -31 -71.5t-74 -30.5q-41 0 -71.5 30.5t-30.5 71.5zM518 1114q0 43 31 74t74 31q41 0 71.5 -31t30.5 -74q0 -41 -30.5 -71.5t-71.5 -30.5 q-43 0 -74 30.5t-31 71.5z" />
<glyph unicode="&#x152;" horiz-adv-x="2211" d="M113 735q0 123 33 236.5t102 212t167.5 171.5t237.5 114.5t303 41.5q125 0 258 -10h865v-147h-715v-518h643v-148h-643v-541h715v-147h-850q-160 -12 -258 -12q-164 0 -304.5 40.5t-241 111.5t-172 166t-106 203.5t-34.5 225.5zM291 735q0 -131 43 -241.5t125 -192 t209.5 -127t287.5 -45.5q159 0 244 16v1211q-84 16 -264 16q-161 0 -286.5 -49t-202.5 -136t-116.5 -201t-39.5 -251z" />
<glyph unicode="&#x153;" horiz-adv-x="1648" d="M82 430q0 123 53.5 224.5t154 162t228.5 60.5q115 0 204.5 -50t145.5 -139q52 87 138.5 138t201.5 51q176 0 276.5 -116.5t100.5 -297.5q0 -35 -6 -82h-631q28 -258 320 -258q98 0 237 47l29 -137q-162 -49 -279 -49q-270 0 -389 186q-119 -186 -348 -186 q-193 0 -314.5 129t-121.5 317zM242 430q0 -141 76 -228t200 -87q123 0 199 87t76 228t-76 228t-199 87q-124 0 -200 -87t-76 -228zM954 504h482q-8 106 -69 171.5t-171 65.5q-103 0 -165.5 -62.5t-76.5 -174.5z" />
<glyph unicode="&#x178;" horiz-adv-x="1300" d="M41 1501h184l430 -696l424 696h181l-529 -835v-666h-164v668zM369 1739q0 43 30.5 73.5t71.5 30.5q43 0 73.5 -30.5t30.5 -73.5q0 -41 -30.5 -72t-73.5 -31q-41 0 -71.5 31t-30.5 72zM723 1739q0 43 30.5 73.5t73.5 30.5q41 0 72 -30.5t31 -73.5q0 -41 -31 -72t-72 -31 q-43 0 -73.5 31t-30.5 72z" />
<glyph unicode="&#x2c6;" d="M158 1001l272 328h59l267 -328h-168l-137 175l-136 -175h-157z" />
<glyph unicode="&#x2dc;" d="M145 1102q85 110 195 110q61 0 117 -38q56 -39 102 -39q59 0 119 75l74 -96q-85 -110 -195 -110q-60 0 -119 38q-53 39 -100 39q-59 0 -119 -75z" />
<glyph unicode="&#x2000;" horiz-adv-x="992" />
<glyph unicode="&#x2001;" horiz-adv-x="1985" />
<glyph unicode="&#x2002;" horiz-adv-x="992" />
<glyph unicode="&#x2003;" horiz-adv-x="1985" />
<glyph unicode="&#x2004;" horiz-adv-x="661" />
<glyph unicode="&#x2005;" horiz-adv-x="496" />
<glyph unicode="&#x2006;" horiz-adv-x="330" />
<glyph unicode="&#x2007;" horiz-adv-x="330" />
<glyph unicode="&#x2008;" horiz-adv-x="248" />
<glyph unicode="&#x2009;" horiz-adv-x="397" />
<glyph unicode="&#x200a;" horiz-adv-x="110" />
<glyph unicode="&#x2010;" horiz-adv-x="694" d="M102 426v139h490v-139h-490z" />
<glyph unicode="&#x2011;" horiz-adv-x="694" d="M102 426v139h490v-139h-490z" />
<glyph unicode="&#x2012;" horiz-adv-x="694" d="M102 426v139h490v-139h-490z" />
<glyph unicode="&#x2013;" horiz-adv-x="1024" d="M102 426v139h820v-139h-820z" />
<glyph unicode="&#x2014;" horiz-adv-x="1536" d="M102 426v139h1332v-139h-1332z" />
<glyph unicode="&#x2018;" horiz-adv-x="352" d="M61 1227q0 78 55 165t158 148l23 -33q-100 -87 -131 -202q48 -3 77 -33t29 -72q0 -41 -29.5 -70.5t-70.5 -29.5q-52 0 -81.5 36t-29.5 91z" />
<glyph unicode="&#x2019;" horiz-adv-x="352" d="M55 1118q99 86 131 203q-48 3 -77 32.5t-29 71.5q0 41 29.5 71t70.5 30q52 0 81.5 -36t29.5 -91q0 -78 -55 -165.5t-158 -148.5z" />
<glyph unicode="&#x201a;" horiz-adv-x="352" d="M55 -213q99 86 131 203q-48 3 -77 32.5t-29 71.5q0 41 29.5 71t70.5 30q52 0 81.5 -36t29.5 -89q0 -78 -55 -166.5t-158 -149.5z" />
<glyph unicode="&#x201c;" horiz-adv-x="653" d="M61 1227q0 78 55 165t158 148l23 -33q-100 -87 -131 -202q48 -3 77 -33t29 -72q0 -41 -29.5 -70.5t-70.5 -29.5q-52 0 -81.5 36t-29.5 91zM362 1227q0 78 55 165t158 148l23 -33q-100 -87 -131 -202q48 -3 77 -33t29 -72q0 -41 -29.5 -70.5t-70.5 -29.5q-52 0 -81.5 36 t-29.5 91z" />
<glyph unicode="&#x201d;" horiz-adv-x="653" d="M55 1118q99 86 131 203q-48 3 -77 32.5t-29 71.5q0 41 29.5 71t70.5 30q52 0 81.5 -36t29.5 -91q0 -78 -55 -165.5t-158 -148.5zM356 1118q99 86 131 203q-48 3 -77 32.5t-29 71.5q0 41 29.5 71t70.5 30q52 0 81.5 -36t29.5 -91q0 -78 -55 -165.5t-158 -148.5z" />
<glyph unicode="&#x201e;" horiz-adv-x="653" d="M55 -213q99 86 131 203q-48 3 -77 32.5t-29 71.5q0 41 29.5 71t70.5 30q52 0 81.5 -36t29.5 -91q0 -78 -55 -165.5t-158 -148.5zM356 -213q99 86 131 203q-48 3 -77 32.5t-29 71.5q0 41 29.5 71t70.5 30q52 0 79.5 -36t27.5 -91q0 -79 -53.5 -166t-155.5 -148z" />
<glyph unicode="&#x2022;" horiz-adv-x="778" d="M111 750q0 118 81 201t197 83t197.5 -83t81.5 -201t-81.5 -201.5t-197.5 -83.5t-197 83.5t-81 201.5z" />
<glyph unicode="&#x2026;" horiz-adv-x="1433" d="M141 90q0 43 31 74t74 31q44 0 75 -31t31 -74q0 -44 -31 -75t-75 -31q-43 0 -74 31t-31 75zM612 90q0 43 31 74t74 31q44 0 75 -31t31 -74q0 -44 -31 -75t-75 -31q-43 0 -74 31t-31 75zM1083 90q0 43 31 74t74 31q44 0 75 -31t31 -74q0 -44 -31 -75t-75 -31q-43 0 -74 31 t-31 75z" />
<glyph unicode="&#x202f;" horiz-adv-x="397" />
<glyph unicode="&#x2039;" horiz-adv-x="569" d="M100 354l215 334h162l-225 -334l225 -336h-162z" />
<glyph unicode="&#x203a;" horiz-adv-x="569" d="M92 18l225 336l-225 334h162l215 -334l-215 -336h-162z" />
<glyph unicode="&#x205f;" horiz-adv-x="496" />
<glyph unicode="&#x20ac;" horiz-adv-x="1333" d="M57 371v135h133q-4 50 -4 80t4 80h-133v139h166q67 178 227 286.5t369 108.5q206 0 395 -115l-67 -131q-174 101 -342 101q-144 0 -250 -66.5t-158 -183.5h566v-139h-605q-4 -50 -4 -80q0 -42 6 -80h603v-135h-562q54 -116 164.5 -183t251.5 -67q170 0 342 100l55 -131 q-189 -115 -395 -115q-214 0 -374 108t-224 288h-164z" />
<glyph unicode="&#x2122;" horiz-adv-x="1001" d="M47 1417v84h363v-84h-136v-360h-92v360h-135zM496 1057l20 448h12l199 -268l195 268h12l20 -448h-88l-6 239l-129 -180h-10l-131 180l-4 -239h-90z" />
<glyph unicode="&#x25fc;" horiz-adv-x="860" d="M0 0v860h860v-860h-860z" />
<glyph unicode="&#xfb01;" horiz-adv-x="1024" d="M53 721v20l133 133v228q0 202 85 308t253 106q69 0 133 -19l-26 -139q-42 10 -80 10q-114 0 -159.5 -54.5t-45.5 -189.5v-264h254v-139h-254v-721h-160v721h-133zM717 1157q0 43 30 74t72 31q43 0 73 -31t30 -74q0 -41 -30 -71.5t-73 -30.5q-42 0 -72 30t-30 72zM737 0 v860h162v-860h-162z" />
<glyph unicode="&#xfb02;" horiz-adv-x="1032" d="M53 721v20l133 133v228q0 202 85 308t253 106q69 0 133 -19l-26 -139q-42 10 -80 10q-114 0 -159.5 -54.5t-45.5 -189.5v-264h254v-139h-254v-721h-160v721h-133zM737 0v1501h162v-1501h-162z" />
<glyph unicode="&#xfb03;" horiz-adv-x="1628" d="M53 721v20l133 133v228q0 202 85 308t253 106q69 0 133 -19l-26 -139q-42 10 -80 10q-114 0 -159.5 -54.5t-45.5 -189.5v-264h254v-139h-254v-721h-160v721h-133zM657 721v20l134 133v228q0 202 84.5 308t252.5 106q70 0 134 -19l-27 -139q-42 10 -80 10 q-114 0 -159.5 -54.5t-45.5 -189.5v-264h254v-139h-254v-721h-159v721h-134zM1321 1157q0 43 30 74t72 31q43 0 73 -31t30 -74q0 -41 -30 -71.5t-73 -30.5q-42 0 -72 30t-30 72zM1341 0v860h162v-860h-162z" />
<glyph unicode="&#xfb04;" horiz-adv-x="1636" d="M53 721v20l133 133v228q0 202 85 308t253 106q69 0 133 -19l-26 -139q-42 10 -80 10q-114 0 -159.5 -54.5t-45.5 -189.5v-264h254v-139h-254v-721h-160v721h-133zM657 721v20l134 133v228q0 202 84.5 308t252.5 106q70 0 134 -19l-27 -139q-42 10 -80 10 q-114 0 -159.5 -54.5t-45.5 -189.5v-264h254v-139h-254v-721h-159v721h-134zM1341 0v1501h162v-1501h-162z" />
</font>
</defs>
</svg>
